Articles

RSS
  • Mastering Comparison

    23 avr. 2009, 8h34m

    Opeth - Damnation
    ----------------------------------------------------------------------------------------------
    DRPeakRMSFilename
    ----------------------------------------------------------------------------------------------
    DR9-5.11 dB-17.54 dBClosure
    DR9 -5.12 dB -16.38 dB Death Whispered a Lullaby
    DR10 -4.42 dB -16.20 dB Ending Credits
    DR9 -5.30 dB -17.87 dB Hope Leaves
    DR9 -4.78 dB -16.51 dB In My Time of Need
    DR11 -4.33 dB -18.27 dB To Rid the Disease
    ----------------------------------------------------------------------------------------------

    Metallica - Death Magnetic
    ----------------------------------------------------------------------------------------------
    DR Peak RMS Filename
    ----------------------------------------------------------------------------------------------
    DR4 over -5.53 dB 01 That Was Just Your Life
    DR4 over -5.35 dB 02 The End of the Line
    DR3 over -4.35 dB 03 Broken, Beat & Scarred
    DR3 over -4.00 dB 04 The Day That Never Comes
    DR3 over -4.18 dB 05 All Nightmare Long
    DR3 over -4.11 dB 06 Cyanide
    DR4 over -6.45 dB 07 The Unforgiven III
    DR3 over -4.00 dB 08 The Judas Kiss
    DR4 over -5.18 dB 09 Suicide & Redemption
    DR3 over -3.76 dB 10 My Apocalypse
    ----------------------------------------------------------------------------------------------

    Heaven & Hell - The Devil You Know
    ----------------------------------------------------------------------------------------------
    DR Peak RMS Filename
    ----------------------------------------------------------------------------------------------
    DR6 over -7.00 dB 01. Atom & Evil
    DR6 over -6.50 dB 02. Fear
    DR6 over -7.69 dB 03. Bible Black
    DR6 over -6.71 dB 04. Double The Pain
    DR5 over -7.04 dB 05. Rock And Roll Angel
    DR6 over -6.84 dB 06. The Turn Of The Screw
    DR5 over -6.22 dB 07. Eating The Cannibals
    DR5 over -6.75 dB 08. Follow The Tears
    DR5 over -6.01 dB 09. Neverwhere
    DR5 over -6.11 dB 10. Breaking Into Heaven
    ----------------------------------------------------------------------------------------------

    The higher Dymanic Range the better (DR)
    If "Peak" level is over, it means clipping and distortion.
  • List your top 10 last.fm artists

    15 avr. 2009, 14h26m

    Without looking at the questions below, list your top 10 last.fm artists

    1. The Cure
    2. Tool
    3. Depeche Mode
    4. Nine Inch Nails
    5. Radiohead
    6. R.E.M.
    7. Marilyn Manson
    8. Emilie Autumn
    9. Pearl Jam
    10.Kent

    ANSWER THE FOLLOWING QUESTIONS

    Q: What was the first song you ever heard by #2?
    A: Vicarious

    Q: What is your favorite album of #6?
    A: Green

    Q: What is your favorite Lyric of #9?
    A: "She lies and says she's in love with him, can't find a Better Man"

    Q: What is your favorite song by #7?
    A: New Model No. 15

    Q: Is there a song of #1 that makes you sad?
    A: A Boy I Never Knew

    Q: What is your favorite song by #8?
    A: Organ Grinder -It's an amazing and furious instrumental

    Q: What is your favorite song by #10?
    A: Järnspöken

    Q: What is your favorite album by #8?
    A: Opheliac

    Q: How did you get into #5?
    A: I heard Creep and the guitar got the hooked.

    Q: What is your favorite song by #9?
    A: Daughter (This wasn't an easy pick)

    Q: Who is your favorite band member of #1?
    A: Simon Gallup

    Q: What is a good memory concerning #4?
    A: My wife intoduced me to them, a few days after we met.

    Q: Is there a song by #3 that makes you sad?
    A: Somebody

    Q: What is your favorite song of #1?
    A: The Last Day of Summer

    Q: How did you become a fan of #7?
    A: After listening to the album Mechanical Animal

    Q: Which of the 10 has influenced you the most?
    A: Depeche Mode I guess.

    Q: Which artist makes you the most happy?
    A: None of them, not really happy music

    Q: Which artist makes you the most sad?
    A: None

    Q: Which artist makes the best dance music?
    A: Haha, I have to say The Cure

    Q: Which artist have you liked the longest?
    A: Depeche Mode, since december 1980

    Q: Which artist have you like the shortest?
    A: Emilie Autumn, since 2007

    Q: Are there any artists you will still be listening to in 20 years?
    A: 1-6 I guess.
  • The Cure's World Tour starts Tonight!!

    27 jui. 2007, 10h04m

    The Cure's World Tour starts tonight.
    Those lucky people in Japan will see Robert Smith perform, but it's a festival so they won't get a full concert. :p